#TITLE:Palace Of The Orient;
#SUBTITLE:;
#ARTIST:Jay Chou;
#TITLETRANSLIT:Palace Of The Orient;
#SUBTITLETRANSLIT:;
#ARTISTTRANSLIT:Chau Kiet Luan;
#CREDIT:;
#BANNER:Palace Of The Orient-bn.png;
#BACKGROUND:Palace Of The Orient-bg.png;
#LYRICSPATH:;
#CDTITLE:pm4cd.png;
#MUSIC:Palace Of The Orient.mp3;
#OFFSET:0.040;
#SAMPLESTART:53.300;
#SAMPLELENGTH:20.000;
#SELECTABLE:YES;
#BPMS:0.000=108.010,46.500=216.010,50.500=108.010,162.500=54.010,163.500=108.010;
#STOPS:;
#BGCHANGES:;
// cache tags:
#FIRSTBEAT:0.500;
#LASTBEAT:311.500;
#SONGFILENAME:Songs/Music V.I.P ^_^/Palace Of The Orient/Palace Of The Orient.sm;
#HASMUSIC:1;
#HASBANNER:1;
#MUSICLENGTH:174.837;
// end cache tags

//---------------dance-single - ----------------
#NOTES:
     dance-single:
     :
     Hard:
     11:
     1.000,1.000,1.000,0.086,0.958,875.000,367.000,15.000,0.000,113.000:
0000
0000
1101
0010
0100
1000
0000
0000
0100
0000
1010
0100
0010
0001
0000
0000
,
0010
0000
1001
0010
0100
1000
0000
0000
0010
0000
1001
1000
0100
0100
0000
0001
,
0001
0000
1101
0001
0010
0010
0000
0000
0100
0000
0011
0010
0100
0100
0000
0000
,
1000
0000
1010
0010
0001
0001
0000
0000
1000
0000
0101
0100
1000
1000
0000
0010
,
0001
0000
1101
0010
0100
1000
0000
0100
0100
0000
1010
0100
0010
0001
0000
0010
,
0010
0000
1001
0010
0100
1000
0000
0001
0001
0000
1001
1000
0100
0100
0000
1000
,
1000
0000
1101
0001
0010
0010
0000
0100
0100
0000
0011
0010
0100
0100
0000
1000
,
1000
0000
1010
0010
0001
0001
0000
0100
1000
0000
0101
0010
1100
1010
0101
0110
,
1001
0000
1111
0100
1000
0010
0101
0000
0010
0000
1100
0010
0001
0100
1010
0000
,
0001
0000
1100
0001
0010
0001
0110
0000
1000
0000
0101
0010
1000
0100
1010
0100
,
0100
0000
1101
0001
0010
0100
1001
0000
0010
0000
1100
0001
1000
0001
1010
0000
,
0010
0000
0011
0100
1000
0100
1001
0000
0100
0000
2020
0000
0000
0000
0000
0000
,
0000
0000
0000
0000
0000
0000
0001
0000
0100
0000
3131
0000
0010
0000
1001
0010
,
0100
0010
0001
0000
0001
0001
1100
0000
0001
0010
0100
0000
0001
0010
1010
0100
,
1000
0010
0100
0000
1000
1000
0101
0000
0001
0001
1011
0000
0100
0000
1001
0100
,
0001
1000
0101
0000
0010
0010
1001
0100
1000
0100
0011
0000
1000
0100
1010
0000
,
0010
0100
1010
0100
1000
0010
1100
0000
0100
0100
1011
0100
0001
0010
1001
0000
,
0010
0000
0101
0010
1000
0010
1100
0000
0001
0000
1010
0100
0001
0010
1001
0000
,
0100
0000
1001
0010
0010
0100
0101
0010
0010
0000
1111
1000
0001
0010
0101
0000
,
1000
0000
0011
0100
0001
0100
1001
0000
0100
0000
1001
0010
0100
0010
1100
0000
,
0001
0000
0110
0100
1001
1001
0101
0101
0011
0011
1111
0010
0100
1000
0101
0000
,
0010
0000
1001
0010
0100
0010
1001
0000
0010
0000
1010
0100
0001
0100
1010
0000
,
0001
0000
1100
0010
0100
0001
0110
1000
1000
0000
1111
0001
0010
0001
1100
0000
,
0010
0000
0101
0010
0100
1000
0011
0000
0100
0000
1010
0001
1000
0100
0011
0000
,
0001
0000
1001
1001
1001
1001
1001
1001
1001
1001
1111
0001
0010
0100
1100
0000
,
0011
0000
0101
0010
0001
0100
1001
0000
1010
0000
1100
0001
0010
0100
0011
0000
,
1100
0000
1010
0100
0010
0001
1010
0001
0001
0000
1110
0001
0100
0010
1001
0000
,
0011
0000
1100
0001
0010
0001
0101
0000
1010
0000
0101
0010
1000
1000
1010
0000
,
0101
0000
0011
1000
0100
1000
0101
0000
1000
1000
1111
0100
0010
0001
0011
0000
,
1001
0000
0110
1000
0001
1000
0101
0000
0011
0000
1010
0001
0010
0010
1001
0000
,
0101
0000
1100
0010
0010
0100
1001
0100
0100
0000
1111
0001
1000
0010
0101
0000
,
1010
0000
1100
0001
0010
0100
1001
0000
0011
0000
1010
0001
0100
0001
1010
0000
,
1100
0000
0010
0010
1100
1100
1100
1100
1100
1100
1211
0000
0000
0011
0000
0000
,
1001
0000
1010
0000
0000
0011
0000
0000
1001
0000
1010
0000
0000
0011
0000
0000
,
1001
0000
1010
0000
0000
0011
0000
0000
1001
0300
2011
0000
0000
0110
0000
0000
,
0101
0000
0011
0000
0000
0110
0000
0000
0101
0000
0011
0000
0000
0110
0000
0000
,
0101
0000
0011
0000
0000
0110
0010
0010
0010
3010
1211
0000
0000
1001
0000
0000
,
1010
0000
0011
0000
0000
1001
0000
0000
1010
0000
0011
0000
0000
1001
0000
0000
,
1010
0000
0011
0000
0000
1001
0000
0000
1010
0300
2101
0000
0000
0110
0000
0000
,
0011
0000
0101
0000
0000
0110
0000
0000
0011
0000
0101
0000
0000
0110
0000
0000
,
0011
0000
0000
0000
0101
0000
0000
0000
0000
0000
0110
0000
0010
0000
0010
0000
0010
0000
3010
0000
0200
0000
0000
0000
0000
0000
0001
0010
1311
0000
0000
0000
,
0010
0000
1001
0010
0100
0010
0001
0000
0001
0001
1100
0000
0001
0010
0100
0000
,
0001
0010
1010
0100
1000
0010
0100
0000
1000
1000
0101
0000
0001
0001
1011
0000
,
0100
0000
1001
0100
0001
1000
0101
0000
0010
0010
1001
0100
1000
0100
0011
0000
,
1000
0100
1010
0000
0010
0100
1010
0100
1000
0010
1100
0000
0100
0100
1011
0100
,
0001
0010
1001
0100
0010
1000
0101
0010
1000
0010
1100
0000
0001
0000
1010
0100
,
0001
0010
1001
0010
0100
0010
1001
0000
0010
0001
0101
0000
0010
0000
1111
1000
,
0001
0010
0101
0010
1000
0000
0011
0100
0001
0100
1001
0000
0100
0000
1001
0010
,
0100
0010
1100
0010
0001
0000
1010
0100
0001
0100
1010
0010
0001
0001
1111
0010
,
0100
1000
0101
1000
0010
0000
1001
0010
0100
0010
1001
0100
0010
0000
1010
0100
,
0001
0100
1010
0100
0001
0000
1100
0010
0100
0001
0110
1000
1000
0000
1111
0001
,
0010
0001
1100
0001
0010
0000
0101
0010
0100
1000
0011
1000
0100
0000
1010
0001
,
1000
0100
0011
0100
0001
0000
0010
0100
1001
1001
1001
1001
1001
1001
1111
0001
,
0010
0100
1100
0000
0011
0000
0101
0010
0001
0100
1001
0000
1010
0000
1100
0001
,
0010
0100
0011
0000
1100
0000
1010
0100
0010
0001
1010
0000
0101
0000
1110
0001
,
0100
0010
1001
0000
0011
0000
1100
0001
0010
0001
0101
0000
1010
0000
0101
0010
,
1000
1000
1010
0000
0101
0000
0011
1000
0100
1000
0101
1000
1000
0000
1111
0100
,
0010
0001
0011
0000
1001
0000
0110
1000
0001
1000
0101
0000
0011
0000
1010
0001
,
0010
0010
1001
0000
0101
0000
1100
0010
0010
0100
1001
0100
0100
0000
1111
0001
,
1000
0010
0101
0000
1010
0000
1100
0001
0010
0100
1001
0000
0011
0000
1010
0001
,
0100
0001
1010
0000
1100
0000
0010
0010
1100
1100
1100
1100
1100
1100
1211
0000
,
0000
0011
0000
0000
0001
0000
1010
0000
0000
0011
0000
0000
0001
0000
1010
0000
,
0000
0011
0000
0000
0001
0000
1010
1010
1010
0000
1001
0000
0001
0300
2011
0000
,
0000
0110
0000
0000
0100
0000
0011
0000
0000
0110
0000
0000
0100
0000
0011
0000
,
0000
0110
0000
0000
0100
0000
0011
0001
0001
0001
0001
0001
0001
3001
1211
0000
,
0000
1001
0000
0000
1000
0000
0011
0000
0000
1001
0000
0000
1000
0000
0011
0000
,
0000
1001
0000
0000
1000
0000
0011
0011
0011
0000
1001
0000
1000
0300
2101
0000
,
0000
0110
0000
0000
0010
0000
0101
0000
0000
0110
0000
0000
0010
0000
0101
0000
,
0000
0110
0000
0000
0010
0000
0101
0010
0010
0010
0010
0010
0010
3010
1111
0001
,
0010
0100
1100
0000
0011
0000
0101
0010
0001
0100
1001
0000
1010
0000
1100
0001
,
0010
0100
0011
0000
1100
0000
1010
0100
0010
0001
1010
0001
0001
0000
1110
0001
,
0100
0010
1001
0000
0011
0000
1100
0001
0010
0001
0101
0000
1010
0000
0101
0010
,
1000
1000
1010
0000
0101
0000
0011
1000
0100
1000
0101
0000
1000
1000
1111
0100
,
0010
0001
0011
0000
1001
0000
0110
1000
0001
1000
0101
0000
0011
0000
1010
0001
,
0010
0010
1001
0000
0101
0000
1100
0010
0010
0100
1001
0100
0100
0000
1111
0001
,
1000
0010
0101
0000
1010
0000
1100
0001
0010
0100
1001
0000
0011
0000
1010
0001
,
0100
0001
1010
0000
1100
0000
0010
0010
1100
1100
1100
1100
1100
1100
2222
0000
,
0000
0000
0000
0000
0000
0000
0000
3333
;

//---------------dance-single - ----------------
#NOTES:
     dance-single:
     :
     Medium:
     1:
     0.000,0.000,0.000,0.000,0.000,0.000,0.000,0.000,0.000,0.000:
0000
0000
0000
0000
;
